Uncategorized

Misconduct – Conspiracy La cospirazione (2016).H264.Italian.English.Ac3.sub.ita.eng.iCV-MIRCrew

Download Misconduct – Conspiracy La cospirazione (2016).H264.Italian.English.Ac3.sub.ita.eng.iCV-MIRCrew

Misconduct – Conspiracy La cospirazione (2016).H264.Italian.English.Ac3.sub.ita.eng.iCV-MIRCrew
NO FOUND ONLY ORIGINAL RELEASE
My release is always in double track audio italian and Original audio
for select it use VLC or dvd player home
not use wmp
Conspiracy La cospirazione – Misconduct (2016)
DATA USCITA: 15 giugno 2016
GENERE: Drammatico, Thriller
ANNO: 2016
REGIA: Shintaro Shimosawa
FOTOGRAFIA: Michael Fimognari
MONTAGGIO: Gregers F. Dohn, Henrik Källberg
MUSICHE: Federico Jusid
PRODUZIONE: Mike and Marty Productions
DISTRIBUZIONE: Lucky Red
PAESE: USA
DURATA: 106 Min
Anthony Hopkins, Al Pacino, Josh Duhamel, Alice Eve, Malin Akerman, Julia Stiles, Glen Powell, Marcus Lyle Brown, Chris Marquette
Ben Cahill (Josh Duhamel) è un giovane e ambizioso avvocato che si ritrova coinvolto in un delicato intrigo di potere tra Arthur Denning (Anthony Hopkins), un corrotto manager farmaceutico, e Charles Abrams (Al Pacino), uno dei soci del suo studio legale………….
When an ambitious young lawyer takes on a big case against a powerful and ruthless executive of a large pharmaceutical company, he soon finds himself involved in a case of blackmail and corruption. ..
[spoiler]General
Unique ID : 93464741455438517380126075426869716162 (0x4650A788D003FDFFCC640902E909A4C2)
Complete name : Conspiracy La cospirazione (2016)H264.ita.eng.sub.ita.eng.iCV-MIRCrew.mkv
Format : Matroska
Format version : Version 2
File size : 1.61 GiB
Duration : 1h 46mn
Overall bit rate : 2 167 Kbps
Movie name : VISIT icv-crew.org
Encoded date : UTC 2016-10-15 08:05:34
Writing application : Lavf54.63.100
Writing library : Lavf54.63.100
COPYRIGHT : robbyrs
Video
ID : 1
Format : AVC
Format/Info : Advanced Video Codec
Format profile : [email protected]Format settings, CABAC : Yes
Format settings, ReFrames : 2 frames
Codec ID : V_MPEG4/ISO/AVC
Duration : 1h 46mn
Bit rate : 1 270 Kbps
Width : 720 pixels
Height : 300 pixels
Display aspect ratio : 2.40:1
Original display aspect ratio : 2.40:1
Frame rate mode : Variable
Frame rate : 24.000 fps
Color space : YUV
Chroma subsampling : 4:2:0
Bit depth : 8 bits
Scan type : Progressive
Bits/(Pixel*Frame) : 0.245
Stream size : 935 MiB (57%)
Writing library : x264 core 130 r2273
Encoding settings : cabac=1 / ref=2 / deblock=1:0:0 / analyse=0x1:0x131 / me=hex / subme=7 / psy=1 / psy_rd=1.00:0.00 / mixed_ref=0 / me_range=16 / chroma_me=1 / trellis=1 / 8x8dct=0 / cqm=0 / deadzone=21,11 / fast_pskip=1 / chroma_qp_offset=-2 / threads=12 / lookahead_threads=2 / sliced_threads=0 / nr=0 / decimate=1 / interlaced=0 / bluray_compat=0 / constrained_intra=0 / bframes=3 / b_pyramid=0 / b_adapt=1 / b_bias=0 / direct=3 / weightb=1 / open_gop=0 / weightp=2 / keyint=240 / keyint_min=24 / scenecut=40 / intra_refresh=0 / rc_lookahead=40 / rc=2pass / mbtree=1 / bitrate=1270 / ratetol=1.0 / qcomp=0.60 / qpmin=10 / qpmax=69 / qpstep=4 / cplxblur=20.0 / qblur=0.5 / vbv_maxrate=24000 / vbv_bufsize=24000 / nal_hrd=none / ip_ratio=1.40 / aq=1:1.00
Language : English
Default : Yes
Forced : No
DURATION : 01:46:06.625000000
NUMBER_OF_FRAMES : 152799
NUMBER_OF_BYTES : 8259349206
_STATISTICS_WRITING_APP : mkvmerge v8.7.0 (‘All of the above’) 64bit
_STATISTICS_WRITING_DATE_UTC : 2016-10-15 08:05:34
_STATISTICS_TAGS : BPS DURATION NUMBER_OF_FRAMES NUMBER_OF_BYTES
Audio #1
ID : 2
Format : AC-3
Format/Info : Audio Coding 3
Mode extension : CM (complete main)
Codec ID : A_AC3
Duration : 1h 46mn
Bit rate mode : Constant
Bit rate : 448 Kbps
Channel(s) : 6 channels
Channel positions : Front: L C R, Side: L R, LFE
Sampling rate : 48.0 KHz
Bit depth : 16 bits
Compression mode : Lossy
Delay relative to video : 1mn 5s
Stream size : 341 MiB (21%)
Title : AC3 iTA
Language : Italian
Default : No
Forced : No
DURATION : 01:46:28.672000000
NUMBER_OF_FRAMES : 199646
NUMBER_OF_BYTES : 511093760
_STATISTICS_WRITING_APP : mkvmerge v8.7.0 (‘All of the above’) 64bit
_STATISTICS_WRITING_DATE_UTC : 2016-10-15 08:05:34
_STATISTICS_TAGS : BPS DURATION NUMBER_OF_FRAMES NUMBER_OF_BYTES
Audio #2
ID : 3
Format : AC-3
Format/Info : Audio Coding 3
Mode extension : CM (complete main)
Codec ID : A_AC3
Duration : 1h 46mn
Bit rate mode : Constant
Bit rate : 448 Kbps
Channel(s) : 6 channels
Channel positions : Front: L C R, Side: L R, LFE
Sampling rate : 48.0 KHz
Bit depth : 16 bits
Compression mode : Lossy
Delay relative to video : 1mn 5s
Stream size : 341 MiB (21%)
Title : AC3 ENG
Language : English
Default : No
Forced : No
DURATION : 01:46:28.672000000
NUMBER_OF_FRAMES : 199646
NUMBER_OF_BYTES : 511093760
_STATISTICS_WRITING_APP : mkvmerge v8.7.0 (‘All of the above’) 64bit
_STATISTICS_WRITING_DATE_UTC : 2016-10-15 08:05:34
_STATISTICS_TAGS : BPS DURATION NUMBER_OF_FRAMES NUMBER_OF_BYTES
Text #1
ID : 4
Format : ASS
Codec ID : S_TEXT/ASS
Codec ID/Info : Advanced Sub Station Alpha
Compression mode : Lossless
Title : REGULAR iTA
Language : Italian
Default : No
Forced : No
DURATION : 01:40:25.093000000
NUMBER_OF_FRAMES : 1262
NUMBER_OF_BYTES : 39326
_STATISTICS_WRITING_APP : mkvmerge v8.7.0 (‘All of the above’) 64bit
_STATISTICS_WRITING_DATE_UTC : 2016-10-15 08:05:34
_STATISTICS_TAGS : BPS DURATION NUMBER_OF_FRAMES NUMBER_OF_BYTES
Text #2
ID : 5
Format : ASS
Codec ID : S_TEXT/ASS
Codec ID/Info : Advanced Sub Station Alpha
Compression mode : Lossless
Title : NON UDENTI iTA
Language : Italian
Default : No
Forced : No
DURATION : 01:40:24.802000000
NUMBER_OF_FRAMES : 1261
NUMBER_OF_BYTES : 44264
_STATISTICS_WRITING_APP : mkvmerge v8.7.0 (‘All of the above’) 64bit
_STATISTICS_WRITING_DATE_UTC : 2016-10-15 08:05:34
_STATISTICS_TAGS : BPS DURATION NUMBER_OF_FRAMES NUMBER_OF_BYTES
Text #3
ID : 6
Format : ASS
Codec ID : S_TEXT/ASS
Codec ID/Info : Advanced Sub Station Alpha
Compression mode : Lossless
Title : REGULAR ENG
Language : English
Default : No
Forced : No
DURATION : 01:40:24.938000000
NUMBER_OF_FRAMES : 1277
NUMBER_OF_BYTES : 44106
_STATISTICS_WRITING_APP : mkvmerge v8.7.0 (‘All of the above’) 64bit
_STATISTICS_WRITING_DATE_UTC : 2016-10-15 08:05:34
_STATISTICS_TAGS : BPS DURATION NUMBER_OF_FRAMES NUMBER_OF_BYTES
Text #4
ID : 7
Format : ASS
Codec ID : S_TEXT/ASS
Codec ID/Info : Advanced Sub Station Alpha
Compression mode : Lossless
Title : NON UDENTI ENG
Language : English
Default : No
Forced : No
DURATION : 01:40:26.036000000
NUMBER_OF_FRAMES : 1315
NUMBER_OF_BYTES : 44736
_STATISTICS_WRITING_APP : mkvmerge v8.7.0 (‘All of the above’) 64bit
_STATISTICS_WRITING_DATE_UTC : 2016-10-15 08:05:34
_STATISTICS_TAGS : BPS DURATION NUMBER_OF_FRAMES NUMBER_OF_BYTES
Menu
00:00:00.000 : :00:00:00.000
00:07:25.070 : :00:07:25.070
00:15:45.945 : :00:15:45.945
00:23:26.822 : :00:23:26.822
00:31:22.089 : :00:31:22.089
00:39:03.550 : :00:39:03.550
00:47:41.692 : :00:47:41.692
00:54:40.486 : :00:54:40.486
01:02:55.605 : :01:02:55.605
01:09:58.194 : :01:09:58.194
01:18:46.138 : :01:18:46.138
01:26:01.573 : :01:26:01.573
[/spoiler]Files:
Conspiracy La cospirazione (2016)H264.ita.eng.sub.ita.eng.iCV-MIRCrew.mkv (1.6 GB)

Misconduct – conspiracy la cospirazione (2016).h264.italian.english.ac3.sub.ita.eng.icv-mircrew independence.day.resurgence.2016.720p.brrip.x264 – wetv 73 ford mustang wide screen wallpapers

Leave a Comment