Uncategorized

Download 16 Blocks(2006)MPEG-4[DaScubaDude]

Download 16 Blocks(2006)MPEG-4[DaScubaDude]

https://youtube.com/watch?v=7LaqTTRNvpg
16 Blocks (2006)
PG-13 1h 42min Action, Crime, Drama 3 March 2006 (USA)
An aging alcoholic cop is assigned the task of escorting a witness from police custody to a courthouse 16 blocks away. There are, however, chaotic forces at work that prevent them from making it in one piece.
Director: Richard Donner
Writer: Richard Wenk
Stars: Bruce Willis, Yasiin Bey, David Morse
General
Complete name : 16 Blocks\16_BLOCKS_Title1.mp4
Format : MPEG-4
Format profile : Base Media
Codec ID : isom (isom/iso2/avc1/mp41)
File size : 1.04 GiB
Duration : 1h 41mn
Overall bit rate : 1 460 Kbps
Movie name : 16_BLOCKS
Genre : Crime
Writing application : Lavf54.6.100
Video
ID : 1
Format : AVC
Format/Info : Advanced Video Codec
Format profile : [email protected]Format settings, CABAC : No
Format settings, ReFrames : 6 frames
Format settings, GOP : N=1
Codec ID : avc1
Codec ID/Info : Advanced Video Coding
Duration : 1h 41mn
Bit rate : 1 200 Kbps
Width : 720 pixels
Height : 404 pixels
Display aspect ratio : 16:9
Frame rate mode : Constant
Frame rate : 29.970 (30000/1001) fps
Color space : YUV
Chroma subsampling : 4:2:0
Bit depth : 8 bits
Scan type : Progressive
Bits/(Pixel*Frame) : 0.138
Stream size : 872 MiB (82%)
Audio
ID : 2
Format : AAC
Format/Info : Advanced Audio Codec
Format profile : LC
Codec ID : 40
Duration : 1h 41mn
Bit rate mode : Constant
Bit rate : 253 Kbps
Channel(s) : 2 channels
Channel(s)_Original : 6 channels
Channel positions : Front: L C R, Side: L R, LFE
Sampling rate : 44.1 KHz
Frame rate : 43.066 fps (1024 spf)
Compression mode : Lossy
Stream size : 184 MiB (17%)
Default : Yes
Alternate group : 1
Files:
16 Blocks
16_BLOCKS_Title1.mp4 (1.0 GB)

Leave a Comment