Uncategorized

Download 13 Hours(2016)MPEG-4[DaScubaDude]

Download 13 Hours(2016)MPEG-4[DaScubaDude]


Tons of well organized henry.portrait.of.a.serial.killer.1986.720p.v2.brrip.x264 – wetv stream XXX videos are waiting windows help & advice – march 2017 – true pdf – 3350 [eclipse] for you! 13 hours: 13 hours(2016)mpeg-4[dascubadude] Codec: Torrent: ExtraTorrent.cc Warning! Torrent added: boobs of these girls cant hold by their dress pictures set – 472 [xplore]
[youtube]4CJBuUwd0Os[/youtube]13 Hours (2016)
R 2h 24min Action, Drama, History 15 January 2016 (USA)
During an attack on a U.S. compound in Libya, a security team struggles to make sense out of the chaos.
Director: Michael Bay
Writers: Chuck Hogan (screenplay), Mitchell Zuckoff (book)
Stars: John Krasinski, Pablo Schreiber, James Badge Dale
General
Complete name : 13 Hours\13_HOURS_Title1.mp4
Format : MPEG-4
Format profile : Base Media
Codec ID : isom (isom/iso2/avc1/mp41)
File size : 1.46 GiB
Duration : 2h 24mn
Overall bit rate : 1 444 Kbps
Movie name : 13_HOURS
Genre : War
Writing application : Lavf54.6.100
Video
ID : 1
Format : AVC
Format/Info : Advanced Video Codec
Format profile : [email protected]Format settings, CABAC : No
Format settings, ReFrames : 6 frames
Codec ID : avc1
Codec ID/Info : Advanced Video Coding
Duration : 2h 24mn
Bit rate : 1 196 Kbps
Width : 720 pixels
Height : 404 pixels
Display aspect ratio : 16:9
Frame rate mode : Constant
Frame rate : 29.970 (30000/1001) fps
Color space : YUV
Chroma subsampling : 4:2:0
Bit depth : 8 bits
Scan type : Progressive
Bits/(Pixel*Frame) : 0.137
Stream size : 1.21 GiB (83%)
Audio
ID : 2
Format : AAC
Format/Info : Advanced Audio Codec
Format profile : LC
Codec ID : 40
Duration : 2h 24mn
Bit rate mode : Constant
Bit rate : 242 Kbps
Channel(s) : 2 channels
Channel(s)_Original : 6 channels
Channel positions : Front: L C R, Side: L R, LFE
Sampling rate : 44.1 KHz
Frame rate : 43.066 fps (1024 spf)
Compression mode : Lossy
Stream size : 250 MiB (17%)
Default : Yes
Alternate group : 1
Files:
13 Hours
13_HOURS_Title1.mp4 (1.5 GB)

Leave a Comment